Description
Image

The.Stolen.2017.BluRay.720p.DTS.x264-MTeam

Code: Select all
http://uploaded.net/file/tjxqf6hh/The.Stolen.2017.BluRay.720p.DTS.x264-MTeam.part1.rar
http://uploaded.net/file/wa7h333t/The.Stolen.2017.BluRay.720p.DTS.x264-MTeam.part2.rar
http://uploaded.net/file/dzvzlgzq/The.Stolen.2017.BluRay.720p.DTS.x264-MTeam.part3.rar
http://uploaded.net/file/4lto9hw4/The.Stolen.2017.BluRay.720p.DTS.x264-MTeam.part4.rar
http://uploaded.net/file/ylmbsixu/The.Stolen.2017.BluRay.720p.DTS.x264-MTeam.part5.rar
http://uploaded.net/file/xjmol72z/The.Stolen.2017.BluRay.720p.DTS.x264-MTeam.part6.rar
http://uploaded.net/file/s3icr9kz/The.Stolen.2017.BluRay.720p.DTS.x264-MTeam.part7.rar


Code: Select all
https://rapidgator.net/file/ca70d104cbc7812158565bf0093f9068/The.Stolen.2017.BluRay.720p.DTS.x264-MTeam.part1.rar.html
https://rapidgator.net/file/dda495515d827cebe33a614fea1d183d/The.Stolen.2017.BluRay.720p.DTS.x264-MTeam.part2.rar.html
https://rapidgator.net/file/6123a0762b323fe4fcd671ef2df3c07b/The.Stolen.2017.BluRay.720p.DTS.x264-MTeam.part3.rar.html
https://rapidgator.net/file/c8e1eb08c01e6373995482af9ef03278/The.Stolen.2017.BluRay.720p.DTS.x264-MTeam.part4.rar.html
https://rapidgator.net/file/aaaa8f9b3989fbc281892203f9c84886/The.Stolen.2017.BluRay.720p.DTS.x264-MTeam.part5.rar.html
https://rapidgator.net/file/7e1a4ee731d92e42c6749716cf1c2846/The.Stolen.2017.BluRay.720p.DTS.x264-MTeam.part6.rar.html
https://rapidgator.net/file/3aaf3bcc63ebaaae103a6f96c8587912/The.Stolen.2017.BluRay.720p.DTS.x264-MTeam.part7.rar.html


Code: Select all
https://userscloud.com/3cibmrecgnrf
https://userscloud.com/0vkbqem2f16x
https://userscloud.com/xkc32q2vp8ut
https://userscloud.com/0qb7p58guy0k
https://userscloud.com/c14n4pvmer4k
https://userscloud.com/hcbk4t3oduqk
https://userscloud.com/d1reyvizcaiz


Code: Select all
http://www.imdb.com/title/tt1680140/


Image

Code: Select all
Format                                   : Matroska
Format version                           : Version 2
File size                                : 6.51 GiB
Duration                                 : 1h 38mn
Overall bit rate                         : 9 508 Kbps
Encoded date                             : UTC 2017-12-21 07:53:38
Writing application                      : mkvmerge v7.7.0 ('Six Voices') 32bit built on Feb 28 2015 23:23:00
Writing library                          : libebml v1.3.1 + libmatroska v1.4.2
_STATISTICS_WRITING_APP                  : mkvmerge v7.7.0 ('Six Voices') 32bit built on Feb 28 2015 23:23:00
_STATISTICS_WRITING_DATE_UTC             : 2017-12-21 07:53:38
_STATISTICS_TAGS                         : BPS DURATION NUMBER_OF_FRAMES NUMBER_OF_BYTES
DURATION                                 : 01:38:00.384000000
NUMBER_OF_FRAMES                         : 551286
NUMBER_OF_BYTES                          : 1109187432

Video
ID                                       : 1
Format                                   : AVC
Format/Info                              : Advanced Video Codec
Format profile                           : [email protected]
Format settings, CABAC                   : Yes
Format settings, ReFrames                : 12 frames
Codec ID                                 : V_MPEG4/ISO/AVC
Duration                                 : 1h 38mn
Bit rate                                 : 8 000 Kbps
Width                                    : 1 280 pixels
Height                                   : 536 pixels
Display aspect ratio                     : 2.40:1
Frame rate                               : 23.976 fps
Color space                              : YUV
Chroma subsampling                       : 4:2:0
Bit depth                                : 8 bits
Scan type                                : Progressive
Bits/(Pixel*Frame)                       : 0.486
Stream size                              : 5.35 GiB (82%)
Writing library                          : x264 core 142 r2431+42 c69a006 tMod [[email protected]:2:0 X86]
Encoding settings                        : cabac=1 / ref=12 / deblock=1:-2:-2 / analyse=0x3:0x133 / me=umh / subme=10 / psy=1 / fade_compensate=0.00 / psy_rd=1.00:0.00 / mixed_ref=1 / me_range=32 / chroma_me=1 / trellis=2 / 8x8dct=1 / cqm=0 / deadzone=21,11 / fast_pskip=0 / chroma_qp_offset=-2 / threads=12 / lookahead_threads=1 / sliced_threads=0 / nr=0 / decimate=0 / interlaced=0 / bluray_compat=0 / constrained_intra=0 / fgo=0 / bframes=6 / b_pyramid=2 / b_adapt=2 / b_bias=0 / direct=3 / weightb=1 / open_gop=0 / weightp=2 / keyint=230 / keyint_min=22 / scenecut=40 / intra_refresh=0 / rc_lookahead=60 / rc=2pass / mbtree=1 / bitrate=8000 / ratetol=1.0 / qcomp=0.60 / qpmin=0:0:0 / qpmax=69:69:69 / qpstep=4 / cplxblur=20.0 / qblur=0.5 / vbv_maxrate=50000 / vbv_bufsize=50000 / nal_hrd=none / filler=0 / ip_ratio=1.40 / aq=1:1.00 / aq-sensitivity=10.00 / aq-factor=1.00:1.00:1.00 / aq2=0 / aq3=0
Default                                  : Yes
Forced                                   : No

Audio
ID                                       : 2
Format                                   : DTS
Format/Info                              : Digital Theater Systems
Codec ID                                 : A_DTS
Duration                                 : 1h 38mn
Bit rate mode                            : Constant
Bit rate                                 : 1 510 Kbps
Channel(s)                               : 6 channels
Channel positions                        : Front: L C R, Side: L R, LFE
Sampling rate                            : 48.0 KHz
Bit depth                                : 24 bits
Compression mode                         : Lossy
Stream size                              : 1.03 GiB (16%)
Title                                    : 英语
Language                                 : English
Default                                  : Yes
Forced                                   : No