Description
Image

GenreAction, Adventure, Thriller
ActorsVin Diesel, Donnie Yen, Deepika Padukone
PlotXander Cage is left for dead after an incident, though he secretly returns to action for a new, tough assignment with his handler Augustus Gibbons.

Code: Select all
http://www.imdb.com/title/tt1293847/


Code: Select all
Format                                   : Matroska
Format version                           : Version 4 / Version 2
File size                                : 1.33 GiB
Duration                                 : 1 h 46 min
Overall bit rate                         : 1 787 kb/s
Encoded date                             : UTC 2017-05-04 08:40:38
Writing application                      : mkvmerge v9.4.2 ('So High') 64bit
Writing library                          : libebml v1.3.4 + libmatroska v1.4.5

Video
ID                                       : 1
Format                                   : AVC
Format/Info                              : Advanced Video Codec
Format profile                           : [email protected]
Format settings, CABAC                   : Yes
Format settings, ReFrames                : 5 frames
Codec ID                                 : V_MPEG4/ISO/AVC
Duration                                 : 1 h 46 min
Bit rate                                 : 1 457 kb/s
Width                                    : 900 pixels
Height                                   : 376 pixels
Display aspect ratio                     : 2.40:1
Frame rate mode                          : Constant
Frame rate                               : 23.976 (24000/1001) FPS
Color space                              : YUV
Chroma subsampling                       : 4:2:0
Bit depth                                : 8 bits
Scan type                                : Progressive
Bits/(Pixel*Frame)                       : 0.180
Stream size                              : 1.09 GiB (81%)
Writing library                          : x264 core 148 r2744 b97ae06
Language                                 : English
Default                                  : Yes
Forced                                   : No

Audio
ID                                       : 2
Format                                   : AAC
Format/Info                              : Advanced Audio Codec
Format profile                           : LC
Codec ID                                 : A_AAC
Duration                                 : 1 h 46 min
Bit rate                                 : 330 kb/s
Channel(s)                               : 6 channels
Channel positions                        : Front: L C R, Side: L R, LFE
Sampling rate                            : 32.0 kHz
Frame rate                               : 31.250 FPS (1024 spf)
Compression mode                         : Lossy
Stream size                              : 252 MiB (18%)
Language                                 : English
Default                                  : Yes
Forced                                   : No


Code: Select all
http://rapidgator.net/file/4dd8de24e03ebe8e254f5a44e26a2a31/xXx_Return_of_Xander_Cage_2017_BRRip_x264_AAC-SSN.rar.html