Description
Image

Exodus.Gods.and.Kings.2014.1080p.BluRay.X264-AMIABLE

Code: Select all
http://uploaded.net/file/bvt7602s/Exodus.Gods.and.Kings.2014.1080p.BluRay.X264-AMIABLE.part01.rar
http://uploaded.net/file/r8g1gkka/Exodus.Gods.and.Kings.2014.1080p.BluRay.X264-AMIABLE.part02.rar
http://uploaded.net/file/tznjh0xu/Exodus.Gods.and.Kings.2014.1080p.BluRay.X264-AMIABLE.part03.rar
http://uploaded.net/file/p07hbk30/Exodus.Gods.and.Kings.2014.1080p.BluRay.X264-AMIABLE.part04.rar
http://uploaded.net/file/7o4v3ysv/Exodus.Gods.and.Kings.2014.1080p.BluRay.X264-AMIABLE.part05.rar
http://uploaded.net/file/qm3u59ft/Exodus.Gods.and.Kings.2014.1080p.BluRay.X264-AMIABLE.part06.rar
http://uploaded.net/file/3fvted3e/Exodus.Gods.and.Kings.2014.1080p.BluRay.X264-AMIABLE.part07.rar
http://uploaded.net/file/z4tkuqkd/Exodus.Gods.and.Kings.2014.1080p.BluRay.X264-AMIABLE.part08.rar
http://uploaded.net/file/o2x2dp8y/Exodus.Gods.and.Kings.2014.1080p.BluRay.X264-AMIABLE.part09.rar
http://uploaded.net/file/ypqsi2cs/Exodus.Gods.and.Kings.2014.1080p.BluRay.X264-AMIABLE.part10.rar
http://uploaded.net/file/2wrmnk5f/Exodus.Gods.and.Kings.2014.1080p.BluRay.X264-AMIABLE.part11.rar


Code: Select all
http://rapidgator.net/file/19dce3e6ffd2669129656000ad9c8eb6/Exodus.Gods.and.Kings.2014.1080p.BluRay.X264-AMIABLE.part01.rar.html
http://rapidgator.net/file/52a70a488938c7c32a2777059664e9f7/Exodus.Gods.and.Kings.2014.1080p.BluRay.X264-AMIABLE.part02.rar.html
http://rapidgator.net/file/aa6d33e8a2a0b4172039c2505b85ff99/Exodus.Gods.and.Kings.2014.1080p.BluRay.X264-AMIABLE.part03.rar.html
http://rapidgator.net/file/87a3ca075dae10e1f4434dad12d89682/Exodus.Gods.and.Kings.2014.1080p.BluRay.X264-AMIABLE.part04.rar.html
http://rapidgator.net/file/82bcc445a295d4182a667c79b6af3b7c/Exodus.Gods.and.Kings.2014.1080p.BluRay.X264-AMIABLE.part05.rar.html
http://rapidgator.net/file/65bac4cc2905d8d33db823d13a6be7ee/Exodus.Gods.and.Kings.2014.1080p.BluRay.X264-AMIABLE.part06.rar.html
http://rapidgator.net/file/c9366415988a2ebe7786607c39e4ccf6/Exodus.Gods.and.Kings.2014.1080p.BluRay.X264-AMIABLE.part07.rar.html
http://rapidgator.net/file/dfb3627b092ea19356427848f6d80bae/Exodus.Gods.and.Kings.2014.1080p.BluRay.X264-AMIABLE.part08.rar.html
http://rapidgator.net/file/e765d61fb7d55b985330b145001cbc6d/Exodus.Gods.and.Kings.2014.1080p.BluRay.X264-AMIABLE.part09.rar.html
http://rapidgator.net/file/aff5d52e1dc1bd25ec9055782e772b5b/Exodus.Gods.and.Kings.2014.1080p.BluRay.X264-AMIABLE.part10.rar.html
http://rapidgator.net/file/79dadcbfdccb14d00caee9d17bd3a051/Exodus.Gods.and.Kings.2014.1080p.BluRay.X264-AMIABLE.part11.rar.html


Code: Select all
http://www.imdb.com/title/tt1528100/


Image

Code: Select all
Format                                   : Matroska
Format version                           : Version 2
File size                                : 10.9 GiB
Duration                                 : 2h 30mn
Overall bit rate                         : 10.4 Mbps
Writing application                      : mkvmerge v6.6.0 ('The Edge Of The In Between') built on Dec 1 2013 17:55:00
Writing library                          : libebml v1.3.0 + libmatroska v1.4.1

Video
ID                                       : 1
Format                                   : AVC
Format/Info                              : Advanced Video Codec
Format profile                           : [email protected]
Format settings, CABAC                   : Yes
Format settings, ReFrames                : 5 frames
Codec ID                                 : V_MPEG4/ISO/AVC
Duration                                 : 2h 30mn
Bit rate                                 : 8 902 Kbps
Width                                    : 1 920 pixels
Height                                   : 800 pixels
Display aspect ratio                     : 2.40:1
Frame rate                               : 23.976 fps
Color space                              : YUV
Chroma subsampling                       : 4:2:0
Bit depth                                : 8 bits
Scan type                                : Progressive
Bits/(Pixel*Frame)                       : 0.242
Stream size                              : 9.13 GiB (84%)
Writing library                          : x264 core 144 r2525 40bb568
Encoding settings                        : cabac=1 / ref=5 / deblock=1:-3:-3 / analyse=0x3:0x113 / me=umh / subme=8 / psy=1 / psy_rd=1.00:0.00 / mixed_ref=1 / me_range=16 / chroma_me=1 / trellis=1 / 8x8dct=1 / cqm=0 / deadzone=21,11 / fast_pskip=1 / chroma_qp_offset=-2 / threads=24 / lookahead_threads=4 / sliced_threads=0 / nr=0 / decimate=1 / interlaced=0 / bluray_compat=0 / constrained_intra=0 / bframes=3 / b_pyramid=2 / b_adapt=2 / b_bias=0 / direct=3 / weightb=1 / open_gop=0 / weightp=2 / keyint=240 / keyint_min=24 / scenecut=40 / intra_refresh=0 / rc_lookahead=50 / rc=2pass / mbtree=1 / bitrate=8902 / ratetol=1.0 / qcomp=0.60 / qpmin=0 / qpmax=69 / qpstep=4 / cplxblur=20.0 / qblur=0.5 / ip_ratio=1.40 / aq=1:1.00
Language                                 : English
Default                                  : Yes
Forced                                   : No

Audio
ID                                       : 2
Format                                   : DTS
Format/Info                              : Digital Theater Systems
Codec ID                                 : A_DTS
Duration                                 : 2h 30mn
Bit rate mode                            : Constant
Bit rate                                 : 1 510 Kbps
Channel(s)                               : 6 channels
Channel positions                        : Front: L C R, Side: L R, LFE
Sampling rate                            : 48.0 KHz
Bit depth                                : 24 bits
Compression mode                         : Lossy
Stream size                              : 1.59 GiB (14%)
Language                                 : English
Default                                  : Yes
Forced                                   : No

Text #1
ID                                       : 3
Format                                   : UTF-8
Codec ID                                 : S_TEXT/UTF8
Codec ID/Info                            : UTF-8 Plain Text
Title                                    : SDH
Language                                 : English
Default                                  : No
Forced                                   : No

Text #2
ID                                       : 4
Format                                   : UTF-8
Codec ID                                 : S_TEXT/UTF8
Codec ID/Info                            : UTF-8 Plain Text
Language                                 : English
Default                                  : No
Forced                                   : No

Menu
00:00:00.000                             : en:00:00:00.000
00:03:55.402                             : en:00:03:55.402
00:06:51.995                             : en:00:06:51.995
00:11:47.707                             : en:00:11:47.707
00:14:29.452                             : en:00:14:29.452
00:18:37.658                             : en:00:18:37.658
00:22:15.834                             : en:00:22:15.834
00:26:51.151                             : en:00:26:51.151
00:30:31.288                             : en:00:30:31.288
00:36:41.366                             : en:00:36:41.366
00:40:48.321                             : en:00:40:48.321
00:44:49.937                             : en:00:44:49.937
00:48:47.800                             : en:00:48:47.800
00:51:16.448                             : en:00:51:16.448
00:54:22.217                             : en:00:54:22.217
00:57:32.658                             : en:00:57:32.658
01:00:31.169                             : en:01:00:31.169
01:04:41.544                             : en:01:04:41.544
01:06:49.047                             : en:01:06:49.047
01:11:01.883                             : en:01:11:01.883
01:16:53.692                             : en:01:16:53.692
01:21:18.040                             : en:01:21:18.040
01:24:30.357                             : en:01:24:30.357
01:28:08.533                             : en:01:28:08.533
01:30:54.157                             : en:01:30:54.157
01:34:14.566                             : en:01:34:14.566
01:37:20.543                             : en:01:37:20.543
01:39:20.204                             : en:01:39:20.204
01:42:40.321                             : en:01:42:40.321
01:46:50.070                             : en:01:46:50.070
01:49:02.661                             : en:01:49:02.661
01:52:18.315                             : en:01:52:18.315
01:57:29.876                             : en:01:57:29.876
02:00:23.842                             : en:02:00:23.842
02:05:41.325                             : en:02:05:41.325
02:07:31.269                             : en:02:07:31.269
02:13:38.469                             : en:02:13:38.469
02:16:21.882                             : en:02:16:21.882
02:19:39.997                             : en:02:19:39.997
02:23:19.800                             : en:02:23:19.800