Description
Image

Annie.Hall.1977.1080p.BluRay.X264-AMIABLE

Code: Select all
http://uploaded.net/file/sxj7y0hm/Annie.Hall.1977.1080p.BluRay.X264-AMIABLE.part1.rar
http://uploaded.net/file/w2xqnz15/Annie.Hall.1977.1080p.BluRay.X264-AMIABLE.part2.rar
http://uploaded.net/file/i2hd2fwb/Annie.Hall.1977.1080p.BluRay.X264-AMIABLE.part3.rar
http://uploaded.net/file/690uo5mp/Annie.Hall.1977.1080p.BluRay.X264-AMIABLE.part4.rar
http://uploaded.net/file/6swyab5z/Annie.Hall.1977.1080p.BluRay.X264-AMIABLE.part5.rar
http://uploaded.net/file/2ynlgx5f/Annie.Hall.1977.1080p.BluRay.X264-AMIABLE.part6.rar
http://uploaded.net/file/pqc5l4q0/Annie.Hall.1977.1080p.BluRay.X264-AMIABLE.part7.rar


Code: Select all
http://rapidgator.net/file/741e84412d340202eb3a36dbd01b2f54/Annie.Hall.1977.1080p.BluRay.X264-AMIABLE.part1.rar.html
http://rapidgator.net/file/7b3d0b3f0fdd9b58aed1ca45ab483b6a/Annie.Hall.1977.1080p.BluRay.X264-AMIABLE.part2.rar.html
http://rapidgator.net/file/10e79fe59f2fc102816f7ac349e44a72/Annie.Hall.1977.1080p.BluRay.X264-AMIABLE.part3.rar.html
http://rapidgator.net/file/5afecf6e4d2417dd584f579a82e1caa8/Annie.Hall.1977.1080p.BluRay.X264-AMIABLE.part4.rar.html
http://rapidgator.net/file/dcbe8cbf946266b3fad6788fc3d3f7c6/Annie.Hall.1977.1080p.BluRay.X264-AMIABLE.part5.rar.html
http://rapidgator.net/file/f51012d7caaf65c2deaa3f4e94bf59e8/Annie.Hall.1977.1080p.BluRay.X264-AMIABLE.part6.rar.html
http://rapidgator.net/file/c2d0d528a00fdfe43e9edce5a7932f9e/Annie.Hall.1977.1080p.BluRay.X264-AMIABLE.part7.rar.html


Code: Select all
http://www.imdb.com/title/tt0075686/


Image

Code: Select all
Format                                   : Matroska
Format version                           : Version 2
File size                                : 6.55 GiB
Duration                                 : 1h 33mn
Overall bit rate                         : 10.0 Mbps
Writing application                      : x264.exe
Writing library                          : mkv2rls v1.4 (date: 2011 mar 29)

Video
ID                                       : 1
Format                                   : AVC
Format/Info                              : Advanced Video Codec
Format profile                           : [email protected]
Format settings, CABAC                   : Yes
Format settings, ReFrames                : 4 frames
Codec ID                                 : V_MPEG4/ISO/AVC
Duration                                 : 1h 33mn
Bit rate                                 : 8 542 Kbps
Width                                    : 1 920 pixels
Height                                   : 1 040 pixels
Display aspect ratio                     : 16:9
Frame rate                               : 23.976 fps
Color space                              : YUV
Chroma subsampling                       : 4:2:0
Bit depth                                : 8 bits
Scan type                                : Progressive
Bits/(Pixel*Frame)                       : 0.178
Stream size                              : 5.44 GiB (83%)
Writing library                          : x264 core 120 r2145 748fe16
Encoding settings                        : cabac=1 / ref=4 / deblock=1:0:0 / analyse=0x3:0x113 / me=umh / subme=8 / psy=1 / psy_rd=1.00:0.00 / mixed_ref=1 / me_range=16 / chroma_me=1 / trellis=1 / 8x8dct=1 / cqm=0 / deadzone=21,11 / fast_pskip=1 / chroma_qp_offset=-2 / threads=12 / sliced_threads=0 / nr=0 / decimate=1 / interlaced=0 / bluray_compat=0 / constrained_intra=0 / bframes=3 / b_pyramid=2 / b_adapt=2 / b_bias=0 / direct=3 / weightb=1 / open_gop=0 / weightp=2 / keyint=240 / keyint_min=24 / scenecut=40 / intra_refresh=0 / rc_lookahead=50 / rc=2pass / mbtree=1 / bitrate=8542 / ratetol=1.0 / qcomp=0.60 / qpmin=0 / qpmax=69 / qpstep=4 / cplxblur=20.0 / qblur=0.5 / ip_ratio=1.40 / aq=1:1.00
Language                                 : English
Default                                  : Yes
Forced                                   : No

Audio
ID                                       : 2
Format                                   : DTS
Format/Info                              : Digital Theater Systems
Codec ID                                 : A_DTS
Duration                                 : 1h 33mn
Bit rate mode                            : Constant
Bit rate                                 : 1 510 Kbps
Channel(s)                               : 2 channels
Channel positions                        : Front: L R
Sampling rate                            : 48.0 KHz
Bit depth                                : 24 bits
Compression mode                         : Lossy
Stream size                              : 1 009 MiB (15%)
Language                                 : English
Default                                  : Yes
Forced                                   : No

Text
ID                                       : 3
Format                                   : UTF-8
Codec ID                                 : S_TEXT/UTF8
Codec ID/Info                            : UTF-8 Plain Text
Language                                 : English
Default                                  : No
Forced                                   : No

Menu
00:00:00.000                             : en:00:00:00.000
00:00:57.099                             : en:00:00:57.099
00:02:41.620                             : en:00:02:41.620
00:04:02.993                             : en:00:04:02.993
00:05:39.673                             : en:00:05:39.673
00:07:23.985                             : en:00:07:23.985
00:10:03.645                             : en:00:10:03.645
00:14:01.591                             : en:00:14:01.591
00:18:18.014                             : en:00:18:18.014
00:21:13.022                             : en:00:21:13.022
00:23:59.980                             : en:00:23:59.980
00:29:04.952                             : en:00:29:04.952
00:33:26.713                             : en:00:33:26.713
00:34:24.229                             : en:00:34:24.229
00:36:36.194                             : en:00:36:36.194
00:37:17.610                             : en:00:37:17.610
00:37:47.682                             : en:00:37:47.682
00:38:43.238                             : en:00:38:43.238
00:40:04.986                             : en:00:40:04.986
00:42:50.902                             : en:00:42:50.902
00:44:14.652                             : en:00:44:14.652
00:45:42.865                             : en:00:45:42.865
00:47:08.159                             : en:00:47:08.159
00:49:18.497                             : en:00:49:18.497
00:52:36.737                             : en:00:52:36.737
00:53:54.982                             : en:00:53:54.982
00:54:19.673                             : en:00:54:19.673
00:55:40.254                             : en:00:55:40.254
00:56:49.990                             : en:00:56:49.990
01:01:19.009                             : en:01:01:19.009
01:01:58.632                             : en:01:01:58.632
01:02:26.618                             : en:01:02:26.618
01:03:47.824                             : en:01:03:47.824
01:04:28.907                             : en:01:04:28.907
01:06:59.724                             : en:01:06:59.724
01:09:22.450                             : en:01:09:22.450
01:10:23.302                             : en:01:10:23.302
01:11:50.973                             : en:01:11:50.973
01:13:02.044                             : en:01:13:02.044
01:15:00.496                             : en:01:15:00.496
01:18:12.563                             : en:01:18:12.563
01:19:12.081                             : en:01:19:12.081
01:20:29.575                             : en:01:20:29.575
01:22:12.386                             : en:01:22:12.386
01:22:42.916                             : en:01:22:42.916
01:26:04.951                             : en:01:26:04.951
01:28:16.833                             : en:01:28:16.833
01:29:05.215                             : en:01:29:05.215
01:31:21.267                             : en:01:31:21.267