Description
Image

Always.1989.1080p.BluRay.X264-AMIABLE

Code: Select all
http://uploaded.net/file/vuxbn7mg/Always.1989.1080p.BluRay.X264-AMIABLE.part01.rar
http://uploaded.net/file/1hgqqo3n/Always.1989.1080p.BluRay.X264-AMIABLE.part02.rar
http://uploaded.net/file/9x7wu1l0/Always.1989.1080p.BluRay.X264-AMIABLE.part03.rar
http://uploaded.net/file/43kql302/Always.1989.1080p.BluRay.X264-AMIABLE.part04.rar
http://uploaded.net/file/mywsyhvh/Always.1989.1080p.BluRay.X264-AMIABLE.part05.rar
http://uploaded.net/file/r3wyup5h/Always.1989.1080p.BluRay.X264-AMIABLE.part06.rar
http://uploaded.net/file/nt1226k3/Always.1989.1080p.BluRay.X264-AMIABLE.part07.rar
http://uploaded.net/file/u1lt1ryv/Always.1989.1080p.BluRay.X264-AMIABLE.part08.rar
http://uploaded.net/file/umcqhc8a/Always.1989.1080p.BluRay.X264-AMIABLE.part09.rar


Code: Select all
http://rapidgator.net/file/362cb015511ef8771c780306925799a1/Always.1989.1080p.BluRay.X264-AMIABLE.part01.rar.html
http://rapidgator.net/file/a87e90885ca1510decb9fcbce1b09d11/Always.1989.1080p.BluRay.X264-AMIABLE.part02.rar.html
http://rapidgator.net/file/a969451007f627e1ce3a8cd613514517/Always.1989.1080p.BluRay.X264-AMIABLE.part03.rar.html
http://rapidgator.net/file/825ff776ff8cd5f7827e8a9ab427d8f5/Always.1989.1080p.BluRay.X264-AMIABLE.part04.rar.html
http://rapidgator.net/file/f86fbc96508de3191a8df3c5821eb3f9/Always.1989.1080p.BluRay.X264-AMIABLE.part05.rar.html
http://rapidgator.net/file/15f10c9a67b92830b49b1227b67b1a9e/Always.1989.1080p.BluRay.X264-AMIABLE.part06.rar.html
http://rapidgator.net/file/650e3d1cec64ecc15a7136477790d76c/Always.1989.1080p.BluRay.X264-AMIABLE.part07.rar.html
http://rapidgator.net/file/430a0b63684186be6c9cfbecaa636665/Always.1989.1080p.BluRay.X264-AMIABLE.part08.rar.html
http://rapidgator.net/file/e216342f0ce064237e9ffe0644ed4fb2/Always.1989.1080p.BluRay.X264-AMIABLE.part09.rar.html


Code: Select all
http://www.imdb.com/title/tt0096794/


Image

Code: Select all
Format                                   : Matroska
Format version                           : Version 2
File size                                : 8.74 GiB
Duration                                 : 2h 2mn
Overall bit rate                         : 10.2 Mbps
Writing application                      : mkvmerge v6.6.0 ('The Edge Of The In Between') built on Dec 1 2013 17:55:00
Writing library                          : libebml v1.3.0 + libmatroska v1.4.1

Video
ID                                       : 1
Format                                   : AVC
Format/Info                              : Advanced Video Codec
Format profile                           : [email protected]
Format settings, CABAC                   : Yes
Format settings, ReFrames                : 4 frames
Codec ID                                 : V_MPEG4/ISO/AVC
Duration                                 : 2h 2mn
Bit rate                                 : 8 714 Kbps
Width                                    : 1 920 pixels
Height                                   : 1 040 pixels
Display aspect ratio                     : 16:9
Frame rate                               : 23.976 fps
Color space                              : YUV
Chroma subsampling                       : 4:2:0
Bit depth                                : 8 bits
Scan type                                : Progressive
Bits/(Pixel*Frame)                       : 0.182
Stream size                              : 7.27 GiB (83%)
Writing library                          : x264 core 142 r2479 dd79a61
Encoding settings                        : cabac=1 / ref=4 / deblock=1:-3:-3 / analyse=0x3:0x113 / me=umh / subme=8 / psy=1 / psy_rd=1.00:0.15 / mixed_ref=1 / me_range=16 / chroma_me=1 / trellis=1 / 8x8dct=1 / cqm=0 / deadzone=21,11 / fast_pskip=1 / chroma_qp_offset=-3 / threads=12 / lookahead_threads=2 / sliced_threads=0 / nr=0 / decimate=1 / interlaced=0 / bluray_compat=0 / constrained_intra=0 / bframes=3 / b_pyramid=2 / b_adapt=2 / b_bias=0 / direct=3 / weightb=1 / open_gop=0 / weightp=2 / keyint=240 / keyint_min=24 / scenecut=40 / intra_refresh=0 / rc_lookahead=50 / rc=2pass / mbtree=1 / bitrate=8714 / ratetol=1.0 / qcomp=0.60 / qpmin=0 / qpmax=69 / qpstep=4 / cplxblur=20.0 / qblur=0.5 / ip_ratio=1.40 / aq=1:1.00
Language                                 : English
Default                                  : Yes
Forced                                   : No

Audio
ID                                       : 2
Format                                   : DTS
Format/Info                              : Digital Theater Systems
Codec ID                                 : A_DTS
Duration                                 : 2h 2mn
Bit rate mode                            : Constant
Bit rate                                 : 1 510 Kbps
Channel(s)                               : 6 channels
Channel positions                        : Front: L C R, Side: L R, LFE
Sampling rate                            : 48.0 KHz
Bit depth                                : 24 bits
Compression mode                         : Lossy
Stream size                              : 1.29 GiB (15%)
Language                                 : English
Default                                  : Yes
Forced                                   : No

Text #1
ID                                       : 3
Format                                   : UTF-8
Codec ID                                 : S_TEXT/UTF8
Codec ID/Info                            : UTF-8 Plain Text
Title                                    : SDH
Language                                 : English
Default                                  : No
Forced                                   : No

Text #2
ID                                       : 4
Format                                   : UTF-8
Codec ID                                 : S_TEXT/UTF8
Codec ID/Info                            : UTF-8 Plain Text
Language                                 : English
Default                                  : No
Forced                                   : No

Menu
00:00:00.000                             : en:00:00:00.000
00:03:05.644                             : en:00:03:05.644
00:09:58.223                             : en:00:09:58.223
00:21:57.733                             : en:00:21:57.733
00:33:21.124                             : en:00:33:21.124
00:38:36.940                             : en:00:38:36.940
00:44:35.673                             : en:00:44:35.673
00:53:58.068                             : en:00:53:58.068
00:57:55.180                             : en:00:57:55.180
01:01:49.664                             : en:01:01:49.664
01:06:38.912                             : en:01:06:38.912
01:16:24.872                             : en:01:16:24.872
01:20:43.130                             : en:01:20:43.130
01:34:22.615                             : en:01:34:22.615
01:36:32.245                             : en:01:36:32.245
01:41:59.864                             : en:01:41:59.864
01:49:10.043                             : en:01:49:10.043
01:56:21.266                             : en:01:56:21.266