Description
Image

Gang.Related.1997.1080p.BluRay.X264-AMIABLE

Code: Select all
http://uploaded.net/file/eze3bq1i/Gang.Related.1997.1080p.BluRay.X264-AMIABLE.part01.rar
http://uploaded.net/file/n5r0gjlr/Gang.Related.1997.1080p.BluRay.X264-AMIABLE.part02.rar
http://uploaded.net/file/gm57lxy2/Gang.Related.1997.1080p.BluRay.X264-AMIABLE.part03.rar
http://uploaded.net/file/vqbeh61m/Gang.Related.1997.1080p.BluRay.X264-AMIABLE.part04.rar
http://uploaded.net/file/6q3tom56/Gang.Related.1997.1080p.BluRay.X264-AMIABLE.part05.rar
http://uploaded.net/file/m4pgl3bq/Gang.Related.1997.1080p.BluRay.X264-AMIABLE.part06.rar
http://uploaded.net/file/rfvh7l8d/Gang.Related.1997.1080p.BluRay.X264-AMIABLE.part07.rar
http://uploaded.net/file/m9nkxn7v/Gang.Related.1997.1080p.BluRay.X264-AMIABLE.part08.rar
http://uploaded.net/file/b6a9fzkx/Gang.Related.1997.1080p.BluRay.X264-AMIABLE.part09.rar
http://uploaded.net/file/aslj5phq/Gang.Related.1997.1080p.BluRay.X264-AMIABLE.part10.rar


Code: Select all
http://rapidgator.net/file/90a2f64fde3982bbf2c3fce109ff1710/Gang.Related.1997.1080p.BluRay.X264-AMIABLE.part01.rar.html
http://rapidgator.net/file/cf123398529c410853ed2911adc259db/Gang.Related.1997.1080p.BluRay.X264-AMIABLE.part02.rar.html
http://rapidgator.net/file/e7457865bfc01744117d4bc6bd177b1e/Gang.Related.1997.1080p.BluRay.X264-AMIABLE.part03.rar.html
http://rapidgator.net/file/8915eddcc5fa16d4be0457f137ecb31d/Gang.Related.1997.1080p.BluRay.X264-AMIABLE.part04.rar.html
http://rapidgator.net/file/be3b8372628e329864dbc0b909e11bcc/Gang.Related.1997.1080p.BluRay.X264-AMIABLE.part05.rar.html
http://rapidgator.net/file/81731ebad12cd78ac082c48312999fd6/Gang.Related.1997.1080p.BluRay.X264-AMIABLE.part06.rar.html
http://rapidgator.net/file/7e11b82974e97f42e25fa80907dbf50c/Gang.Related.1997.1080p.BluRay.X264-AMIABLE.part07.rar.html
http://rapidgator.net/file/02b96a707dc524d90a59aad83352d34d/Gang.Related.1997.1080p.BluRay.X264-AMIABLE.part08.rar.html
http://rapidgator.net/file/5298cb7840efca132eef3496dbbf2cdd/Gang.Related.1997.1080p.BluRay.X264-AMIABLE.part09.rar.html
http://rapidgator.net/file/e326f145a8278511177884e157d44e77/Gang.Related.1997.1080p.BluRay.X264-AMIABLE.part10.rar.html


Code: Select all
http://www.imdb.com/title/tt0118900/


Image

Code: Select all
Format                                   : Matroska
Format version                           : Version 4 / Version 2
File size                                : 9.84 GiB
Duration                                 : 1h 51mn
Overall bit rate                         : 12.7 Mbps
Encoded date                             : UTC 2010-02-22 21:41:29
Writing application                      : no_variable_data
Writing library                          : no_variable_data

Video
ID                                       : 1
Format                                   : AVC
Format/Info                              : Advanced Video Codec
Format profile                           : [email protected]
Format settings, CABAC                   : Yes
Format settings, ReFrames                : 5 frames
Codec ID                                 : V_MPEG4/ISO/AVC
Duration                                 : 1h 51mn
Bit rate                                 : 11.1 Mbps
Width                                    : 1 920 pixels
Height                                   : 816 pixels
Display aspect ratio                     : 2.35:1
Frame rate                               : 23.976 fps
Color space                              : YUV
Chroma subsampling                       : 4:2:0
Bit depth                                : 8 bits
Scan type                                : Progressive
Bits/(Pixel*Frame)                       : 0.297
Stream size                              : 8.47 GiB (86%)
Writing library                          : x264 core 148 r2705 3f5ed56
Encoding settings                        : cabac=1 / ref=5 / deblock=1:-3:-3 / analyse=0x3:0x113 / me=umh / subme=8 / psy=1 / psy_rd=1.10:0.00 / mixed_ref=1 / me_range=32 / chroma_me=1 / trellis=1 / 8x8dct=1 / cqm=0 / deadzone=21,11 / fast_pskip=1 / chroma_qp_offset=-2 / threads=18 / lookahead_threads=3 / sliced_threads=0 / nr=0 / decimate=1 / interlaced=0 / bluray_compat=0 / constrained_intra=0 / bframes=3 / b_pyramid=2 / b_adapt=2 / b_bias=0 / direct=3 / weightb=1 / open_gop=0 / weightp=2 / keyint=240 / keyint_min=24 / scenecut=40 / intra_refresh=0 / rc_lookahead=50 / rc=2pass / mbtree=1 / bitrate=11149 / ratetol=1.0 / qcomp=0.60 / qpmin=0 / qpmax=69 / qpstep=4 / cplxblur=20.0 / qblur=0.5 / ip_ratio=1.40 / aq=3:0.80
Default                                  : Yes
Forced                                   : No
DURATION                                 : 01:51:16.337000000
NUMBER_OF_FRAMES                         : 160072
NUMBER_OF_BYTES                          : 9300867487
_STATISTICS_WRITING_APP                  : no_variable_data
_STATISTICS_WRITING_DATE_UTC             : 1970-01-01 00:00:00
_STATISTICS_TAGS                         : BPS DURATION NUMBER_OF_FRAMES NUMBER_OF_BYTES

Audio
ID                                       : 2
Format                                   : DTS
Format/Info                              : Digital Theater Systems
Codec ID                                 : A_DTS
Duration                                 : 1h 51mn
Bit rate mode                            : Constant
Bit rate                                 : 1 510 Kbps
Channel(s)                               : 6 channels
Channel positions                        : Front: L C R, Side: L R, LFE
Sampling rate                            : 48.0 KHz
Bit depth                                : 24 bits
Compression mode                         : Lossy
Stream size                              : 1.17 GiB (12%)
Language                                 : English
Default                                  : Yes
Forced                                   : No
DURATION                                 : 01:51:16.363000000
NUMBER_OF_FRAMES                         : 625909
NUMBER_OF_BYTES                          : 1259328908
_STATISTICS_WRITING_APP                  : no_variable_data
_STATISTICS_WRITING_DATE_UTC             : 1970-01-01 00:00:00
_STATISTICS_TAGS                         : BPS DURATION NUMBER_OF_FRAMES NUMBER_OF_BYTES

Text #1
ID                                       : 3
Format                                   : UTF-8
Codec ID                                 : S_TEXT/UTF8
Codec ID/Info                            : UTF-8 Plain Text
Language                                 : English
Default                                  : No
Forced                                   : No
DURATION                                 : 01:50:35.503000000
NUMBER_OF_FRAMES                         : 2221
NUMBER_OF_BYTES                          : 64931
_STATISTICS_WRITING_APP                  : no_variable_data
_STATISTICS_WRITING_DATE_UTC             : 1970-01-01 00:00:00
_STATISTICS_TAGS                         : BPS DURATION NUMBER_OF_FRAMES NUMBER_OF_BYTES

Text #2
ID                                       : 4
Format                                   : UTF-8
Codec ID                                 : S_TEXT/UTF8
Codec ID/Info                            : UTF-8 Plain Text
Title                                    : SDH
Language                                 : English
Default                                  : No
Forced                                   : No
DURATION                                 : 01:50:35.503000000
NUMBER_OF_FRAMES                         : 2421
NUMBER_OF_BYTES                          : 71666
_STATISTICS_WRITING_APP                  : no_variable_data
_STATISTICS_WRITING_DATE_UTC             : 1970-01-01 00:00:00
_STATISTICS_TAGS                         : BPS DURATION NUMBER_OF_FRAMES NUMBER_OF_BYTES