Description
Image

A small group of scientists and soldiers have taken refuge in an underground missile silo where they struggle to control the flesh-eating horror that walks the earth above. But will the final battle for the future of the human race be fought among the living or have they forever unleashed the hunger of the dead?

For more about Day of the Dead and the Day of the Dead Blu-ray release, see Day of the Dead Blu-ray Review published by Jeffrey Kauffman on September 15, 2013 where this Blu-ray release scored 3.5 out of 5.

Image

Image

ID : 1
Format : AVC
Format/Info : Advanced Video Codec
Format profile : [email protected]
Format settings, CABAC : Yes
Format settings, RefFrames : 4 frames
Codec ID : V_MPEG4/ISO/AVC
Duration : 1 h 40 min
Bit rate : 7 000 kb/s
Width : 1 280 pixels
Height : 720 pixels
Display aspect ratio : 16:9
Frame rate mode : Constant
Frame rate : 23.976 (24000/1001) FPS
Color space : YUV
Chroma subsampling : 4:2:0
Bit depth : 8 bits
Scan type : Progressive
Bits/(Pixel*Frame) : 0.317
Stream size : 4.85 GiB (82%)
Writing library : x264 core 148 r2708 86b7198

ID : 2
Format : DTS
Format/Info : Digital Theater Systems
Mode : 16
Format settings, Endianness : Big
Codec ID : A_DTS
Duration : 1 h 40 min
Bit rate mode : Constant
Bit rate : 1 509 kb/s
Channel(s) : 2 channels
Channel positions : Front: L R
Sampling rate : 48.0 kHz
Frame rate : 93.750 FPS (512 SPF)
Bit depth : 16 bits
Compression mode : Lossy
Delay relative to video : 10 ms
Stream size : 1.06 GiB (18%)
Default : Yes
Forced : No

Code: Select all
http://nitroflare.com/view/F15C0C3527A1018/day_of_the_dead_1985_720p_bluray.part1.rar
http://nitroflare.com/view/65209E62F2E39D3/day_of_the_dead_1985_720p_bluray.part2.rar
http://nitroflare.com/view/C3E323305BD1C2D/day_of_the_dead_1985_720p_bluray.part3.rar
http://nitroflare.com/view/07AD9CD07984263/day_of_the_dead_1985_720p_bluray.part4.rar
http://nitroflare.com/view/3D90D91E508B902/day_of_the_dead_1985_720p_bluray.part5.rar
http://nitroflare.com/view/4AA8547AEB2387F/day_of_the_dead_1985_720p_bluray.part6.rar


Link checked on Tue Jul 25, 2017 8:53 am [dreklyzone]