Description
Image

Plot: Inspired by the true events of a couple vacationing on a remote island in the Bahamas who are hunted by a group of modern-day pirates, after their identities and their lives.

Code: Select all
Genre: Action | Thriller
IMDB Rating: 5.0/10 from 343 users
Directed by: Shane Dax Taylor
Starring: Dominic Purcell, Luke Mably, Marie Avgeropoulos

Format                      : AVI
Format/Info                 : Audio Video Interleave
File size                   : 1.35 GiB
Duration                    : 1h 33mn
Overall bit rate            : 2 054 Kbps
Movie name                  : RARBG - Isolation.2015.BRRip.XviD.AC3-RARBG
Writing application         : Lavf57.71.100
Writing library             : VirtualDub build 35491/release
Comment                     : RARBG - Isolation.2015.BRRip.XviD.AC3-RARBG

Video
ID                          : 0
Format                      : MPEG-4 Visual
Format profile              : [email protected]
Format settings, BVOP       : No
Format settings, QPel       : No
Format settings, GMC        : No warppoints
Format settings, Matrix     : Default (H.263)
Codec ID                    : XVID
Codec ID/Hint               : XviD
Duration                    : 1h 33mn
Bit rate                    : 1 597 Kbps
Width                       : 720 pixels
Height                      : 306 pixels
Display aspect ratio        : 2.35:1
Frame rate                  : 24.000 fps
Color space                 : YUV
Chroma subsampling          : 4:2:0
Bit depth                   : 8 bits
Scan type                   : Progressive
Compression mode            : Lossy
Bits/(Pixel*Frame)          : 0.302
Stream size                 : 1.05 GiB (78%)
Writing library             : Lavc57.89.100

Audio
ID                          : 1
Format                      : AC-3
Format/Info                 : Audio Coding 3
Mode extension              : CM (complete main)
Format settings, Endianness : Big
Codec ID                    : 2000
Duration                    : 1h 33mn
Bit rate mode               : Constant
Bit rate                    : 448 Kbps
Channel(s)                  : 6 channels
Channel positions           : Front: L C R, Side: L R, LFE
Sampling rate               : 48.0 KHz
Frame rate                  : 31.250 fps (1536 spf)
Compression mode            : Lossy
Stream size                 : 301 MiB (22%)
Alignment                   : Aligned on interleaves
Interleave, duration        : 42 ms (1.00 video frame)
Interleave, preload duratio : 512 ms

Release Name: Isolation.2015.720p.Bluray.x264-PFa
Size: 4.35 GB
Video: MKV | 1280×544 | 5 126 kb/s
Audio: English | DTS | 1 509 Kbps
Runtime: 1 h 33 min
Subtitles: N/A


Isolation 2015 BRRip XviD AC3-RARBG

Code: Select all
http://www.mexashare.com/pkmhjwgtx8wq/Isolation.2015.BRRip.XviD.AC3-RARBG.avi

http://rapidgator.net/file/9cca34859c31c11151997be4b12f5e7b/Isolation.2015.BRRip.XviD.AC3-RARBG.avi.html

http://uploadrocket.net/ph3sxz40bqj0/Isolation.2015.BRRip.XviD.AC3-RARBG.avi.html


Isolation 2015 720p Bluray x264-PFa

Code: Select all
http://rapidgator.net/file/dd8a489ab3ed1d7e4ddf2706fc5e6dd4/pfa-isolation.720p.mkv.html

http://uploadrocket.net/mogl6a8w895h/pfa-isolation.720p.mkv.html
_

http://www.mexashare.com/m2dz2z7tpmno/pfa-isolation.720p.part1.rar
http://www.mexashare.com/um1wa5nyv7hp/pfa-isolation.720p.part2.rar
http://www.mexashare.com/n560y8x6pog8/pfa-isolation.720p.part3.rar
http://www.mexashare.com/emxjxq4mpo22/pfa-isolation.720p.part4.rar
http://www.mexashare.com/tx0caewhk6cv/pfa-isolation.720p.part5.rar

http://rapidgator.net/file/023cbd83ede784295d94ececbb3df191/pfa-isolation.720p.part1.rar.html
http://rapidgator.net/file/cc731b0a3a2f8eaa43df1abbed294404/pfa-isolation.720p.part2.rar.html
http://rapidgator.net/file/89834d43b8b89df0f7f927b2e601b4c4/pfa-isolation.720p.part3.rar.html
http://rapidgator.net/file/dcb5fb529af1f1907934385ba94e1b10/pfa-isolation.720p.part4.rar.html
http://rapidgator.net/file/938b4b443358a2e488bf64a23c33a1ea/pfa-isolation.720p.part5.rar.html

http://uploadrocket.net/2mrxkzg5xrj3/pfa-isolation.720p.part1.rar.html
http://uploadrocket.net/lxvcie7wkvpe/pfa-isolation.720p.part2.rar.html
http://uploadrocket.net/n906owfzvda7/pfa-isolation.720p.part3.rar.html
http://uploadrocket.net/qm3nl5yjmgra/pfa-isolation.720p.part4.rar.html
http://uploadrocket.net/2bkg0yszrzrw/pfa-isolation.720p.part5.rar.html