Description
Image

Code: Select all
www.imdb.com/title/tt3450958/


Quote: Select all
Source: 1080p EVO

Uncropped version with HC English subs for ape speaking parts only.. Enjoy

General

Format : Matroska
Format version : Version 2
File size : 2.68 GiB
Duration : 2h 18mn
Overall bit rate mode : Variable
Overall bit rate : 2 766 Kbps

Video

ID : 1
Format : AVC
Format/Info : Advanced Video Codec
Format profile : [email protected]
Format settings, CABAC : Yes
Format settings, ReFrames : 3 frames
Codec ID : V_MPEG4/ISO/AVC
Duration : 2h 18mn
Bit rate mode : Variable
Bit rate : 2 519 Kbps
Maximum bit rate : 14.0 Mbps
Width : 1 280 pixels
Height : 720 pixels
Display aspect ratio : 16:9
Frame rate mode : Constant
Frame rate : 30.000 fps
Color space : YUV
Chroma subsampling : 4:2:0
Bit depth : 8 bits
Scan type : Progressive
Bits/(Pixel*Frame) : 0.091
Stream size : 2.44 GiB (91%)
Default : Yes
Forced : No
Color primaries : BT.709
Transfer characteristics : BT.709
Matrix coefficients : BT.709

Audio

ID : 2
Format : AC-3
Format/Info : Audio Coding 3
Mode extension : CM (complete main)
Format settings, Endianness : Big
Codec ID : A_AC3
Duration : 2h 18mn
Bit rate mode : Constant
Bit rate : 192 Kbps
Channel(s) : 2 channels
Channel positions : Front: L R
Sampling rate : 48.0 KHz
Bit depth : 16 bits
Compression mode : Lossy
Delay relative to video : 62ms
Stream size : 191 MiB (7%)
Language : English
Default : Yes
Forced : No

Text

ID : 3
Format : UTF-8
Codec ID : S_TEXT/UTF8
Codec ID/Info : UTF-8 Plain Text
Language : English
Default : Yes
Forced : Yes




Image
Image
Image
Image
Image
Image



Code: Select all
https://rapidgator.net/file/fa6c91fae084e9df4148de50712e29b1/War_For_The_Planet_Of_The_Apes_2017_720p_HC_HDRIP_X264_AC3_TiTAN.mkv.html



Code: Select all
https://rapidgator.net/file/cf4c27d4d74ea3bd6a76a7eaa8f34903/War_For_The_Planet_Of_The_Apes_2017_720p_HC_HDRIP_X264_AC3_TiTAN.part1.rar.html
https://rapidgator.net/file/5930af05cb0ef34f2ddb484f32826206/War_For_The_Planet_Of_The_Apes_2017_720p_HC_HDRIP_X264_AC3_TiTAN.part2.rar.html
https://rapidgator.net/file/806e39da8e6c248c570deef4beefaff6/War_For_The_Planet_Of_The_Apes_2017_720p_HC_HDRIP_X264_AC3_TiTAN.part3.rar.html




Code: Select all
http://uploaded.net/file/ktwgqyz3/War%20For%20The%20Planet%20Of%20The%20Apes%202017%20720p%20HC%20HDRIP%20X264%20AC3%20TiTAN.part1.rar
http://uploaded.net/file/0xkbpqkp/War%20For%20The%20Planet%20Of%20The%20Apes%202017%20720p%20HC%20HDRIP%20X264%20AC3%20TiTAN.part3.rar
http://uploaded.net/file/izrdqw45/War%20For%20The%20Planet%20Of%20The%20Apes%202017%20720p%20HC%20HDRIP%20X264%20AC3%20TiTAN.part2.rar





Code: Select all
http://katfile.com/r4rvkbvf6sw9/War_For_The_Planet_Of_The_Apes_2017_720p_HC_HDRIP_X264_AC3_TiTAN.part1.rar.html
http://katfile.com/2irh3vqhm2iv/War_For_The_Planet_Of_The_Apes_2017_720p_HC_HDRIP_X264_AC3_TiTAN.part1.rar.html
http://katfile.com/9rj63z0qaunc/War_For_The_Planet_Of_The_Apes_2017_720p_HC_HDRIP_X264_AC3_TiTAN.part3.rar.html





Code: Select all
http://fileflares.com/9kk9zvr6fwj6/War_For_The_Planet_Of_The_Apes_2017_720p_HC_HDRIP_X264_AC3_TiTAN.part1.rar.html
http://fileflares.com/69j8le8pdync/War_For_The_Planet_Of_The_Apes_2017_720p_HC_HDRIP_X264_AC3_TiTAN.part2.rar.html
http://fileflares.com/zuuvhmyutlfp/War_For_The_Planet_Of_The_Apes_2017_720p_HC_HDRIP_X264_AC3_TiTAN.part3.rar.html