Description
Image

Code: Select all
http://www.imdb.com/title/tt4877122/


Quote: Select all
Source: OWN 1080p (BIG THX BRO)

General

Format : Matroska
Format version : Version 2
File size : 3.64 GiB
Duration : 1h 20mn
Overall bit rate mode : Variable
Overall bit rate : 6 478 Kbps

Video

ID : 1
Format : AVC
Format/Info : Advanced Video Codec
Format profile : [email protected]
Format settings, CABAC : Yes
Format settings, ReFrames : 3 frames
Codec ID : V_MPEG4/ISO/AVC
Duration : 1h 20mn
Bit rate mode : Variable
Bit rate : 5 965 Kbps
Maximum bit rate : 14.0 Mbps
Width : 1 280 pixels
Height : 720 pixels
Display aspect ratio : 16:9
Frame rate mode : Constant
Frame rate : 30.000 fps
Color space : YUV
Chroma subsampling : 4:2:0
Bit depth : 8 bits
Scan type : Progressive
Bits/(Pixel*Frame) : 0.216
Stream size : 3.36 GiB (92%)
Default : Yes
Forced : No
Color primaries : BT.709
Transfer characteristics : BT.709
Matrix coefficients : BT.709

Audio

ID : 2
Format : AC-3
Format/Info : Audio Coding 3
Mode extension : CM (complete main)
Format settings, Endianness : Big
Codec ID : A_AC3
Duration : 1h 20mn
Bit rate mode : Constant
Bit rate : 384 Kbps
Channel(s) : 2 channels
Channel positions : Front: L R
Sampling rate : 48.0 KHz
Bit depth : 16 bits
Compression mode : Lossy
Stream size : 221 MiB (6%)
Language : English
Default : Yes
Forced : No



Image

Image

Image

Image

Image



Code: Select all
https://rapidgator.net/file/69fbd42face220c62fef3c9a9d6822d8/The_Emoji_Movie_2017_720p_HC_HDRIP_x264_AC3_TiTAN.mkv.html




Code: Select all
https://rapidgator.net/file/b5c9fa7940f84734924d70f4a6898546/The_Emoji_Movie_2017_720p_HC_HDRIP_x264_AC3_TiTAN.part1.rar.html
https://rapidgator.net/file/1447f515a89d13cec01e3e8bb3c1f5bf/The_Emoji_Movie_2017_720p_HC_HDRIP_x264_AC3_TiTAN.part2.rar.html
https://rapidgator.net/file/5bac29210169ab1c62e6f27ca38cf2e5/The_Emoji_Movie_2017_720p_HC_HDRIP_x264_AC3_TiTAN.part3.rar.html
https://rapidgator.net/file/6abda8ec48eacc04a115608623edd8c7/The_Emoji_Movie_2017_720p_HC_HDRIP_x264_AC3_TiTAN.part4.rar.html





Code: Select all
http://uploaded.net/file/n0fql1n1/The%20Emoji%20Movie%202017%20720p%20HC%20HDRIP%20x264%20AC3%20TiTAN.part4.rar
http://uploaded.net/file/a9g8ryzv/The%20Emoji%20Movie%202017%20720p%20HC%20HDRIP%20x264%20AC3%20TiTAN.part3.rar
http://uploaded.net/file/v0w8k00c/The%20Emoji%20Movie%202017%20720p%20HC%20HDRIP%20x264%20AC3%20TiTAN.part2.rar
http://uploaded.net/file/qvago0w2/The%20Emoji%20Movie%202017%20720p%20HC%20HDRIP%20x264%20AC3%20TiTAN.part1.rar